  0
SECTION
  2
HEADER
  9
$ACADVER
  1
AC1015
  9
$ACADMAINTVER
 70
     6
  9
$DWGCODEPAGE
  3
ANSI_1252
  9
$INSBASE
 10
0.0
 20
0.0
 30
0.0
  9
$EXTMIN
 10
-0.939693
 20
-0.984808
 30
0.0
  9
$EXTMAX
 10
13.0
 20
12.984808
 30
0.0
  9
$LIMMIN
 10
0.0
 20
0.0
  9
$LIMMAX
 10
0.0
 20
0.0
  9
$ORTHOMODE
 70
     0
  9
$REGENMODE
 70
     1
  9
$FILLMODE
 70
     1
  9
$QTEXTMODE
 70
     0
  9
$MIRRTEXT
 70
     1
  9
$LTSCALE
 40
1.0
  9
$ATTMODE
 70
     1
  9
$TEXTSIZE
 40
0.2
  9
$TRACEWID
 40
0.05
  9
$TEXTSTYLE
  7
Standard
  9
$CLAYER
  8
0
  9
$CELTYPE
  6
Continuous
  9
$CECOLOR
 62
   256
  9
$CELTSCALE
 40
1.0
  9
$DISPSILH
 70
     0
  9
$DIMSCALE
 40
1.0
  9
$DIMASZ
 40
0.18
  9
$DIMEXO
 40
0.0625
  9
$DIMDLI
 40
0.38
  9
$DIMRND
 40
0.0
  9
$DIMDLE
 40
0.0
  9
$DIMEXE
 40
0.18
  9
$DIMTP
 40
0.0
  9
$DIMTM
 40
0.0
  9
$DIMTXT
 40
0.18
  9
$DIMCEN
 40
0.09
  9
$DIMTSZ
 40
0.0
  9
$DIMTOL
 70
     0
  9
$DIMLIM
 70
     0
  9
$DIMTIH
 70
     1
  9
$DIMTOH
 70
     1
  9
$DIMSE1
 70
     0
  9
$DIMSE2
 70
     0
  9
$DIMTAD
 70
     0
  9
$DIMZIN
 70
     0
  9
$DIMBLK
  1

  9
$DIMASO
 70
     1
  9
$DIMSHO
 70
     1
  9
$DIMPOST
  1

  9
$DIMAPOST
  1

  9
$DIMALT
 70
     0
  9
$DIMALTD
 70
     2
  9
$DIMALTF
 40
25.4
  9
$DIMLFAC
 40
1.0
  9
$DIMTOFL
 70
     0
  9
$DIMTVP
 40
0.0
  9
$DIMTIX
 70
     0
  9
$DIMSOXD
 70
     0
  9
$DIMSAH
 70
     0
  9
$DIMBLK1
  1

  9
$DIMBLK2
  1

  9
$DIMSTYLE
  2
Standard
  9
$DIMCLRD
 70
     0
  9
$DIMCLRE
 70
     0
  9
$DIMCLRT
 70
     0
  9
$DIMTFAC
 40
1.0
  9
$DIMGAP
 40
0.09
  9
$DIMJUST
 70
     0
  9
$DIMSD1
 70
     0
  9
$DIMSD2
 70
     0
  9
$DIMTOLJ
 70
     1
  9
$DIMTZIN
 70
     0
  9
$DIMALTZ
 70
     0
  9
$DIMALTTZ
 70
     0
  9
$DIMUPT
 70
     0
  9
$DIMDEC
 70
     4
  9
$DIMTDEC
 70
     4
  9
$DIMALTU
 70
     2
  9
$DIMALTTD
 70
     2
  9
$DIMTXSTY
  7
Standard
  9
$DIMAUNIT
 70
     0
  9
$DIMADEC
 70
     0
  9
$DIMALTRND
 40
0.0
  9
$DIMAZIN
 70
     0
  9
$DIMDSEP
 70
    46
  9
$DIMATFIT
 70
     3
  9
$DIMFRAC
 70
     0
  9
$DIMLDRBLK
  1

  9
$DIMLUNIT
 70
     2
  9
$DIMLWD
 70
    -2
  9
$DIMLWE
 70
    -2
  9
$DIMTMOVE
 70
     0
  9
$LUNITS
 70
     2
  9
$LUPREC
 70
     4
  9
$SKETCHINC
 40
0.1
  9
$FILLETRAD
 40
0.0
  9
$AUNITS
 70
     0
  9
$AUPREC
 70
     0
  9
$MENU
  1
acad
  9
$ELEVATION
 40
0.0
  9
$PELEVATION
 40
0.0
  9
$THICKNESS
 40
0.0
  9
$LIMCHECK
 70
     0
  9
$CHAMFERA
 40
0.0
  9
$CHAMFERB
 40
0.0
  9
$CHAMFERC
 40
0.0
  9
$CHAMFERD
 40
0.0
  9
$SKPOLY
 70
     0
  9
$TDCREATE
 40
2454509.527650463
  9
$TDUCREATE
 40
0.000000000
  9
$TDUPDATE
 40
2454509.527650463
  9
$TDUUPDATE
 40
0.000000000
  9
$TDINDWG
 40
0.0000000000
  9
$TDUSRTIMER
 40
0.0000000000
  9
$USRTIMER
 70
     1
  9
$ANGBASE
 50
0.0
  9
$ANGDIR
 70
     0
  9
$PDMODE
 70
     0
  9
$PDSIZE
 40
0.0
  9
$PLINEWID
 40
0.0
  9
$SPLFRAME
 70
     0
  9
$SPLINETYPE
 70
     6
  9
$SPLINESEGS
 70
     8
  9
$HANDSEED
  5
58
  9
$SURFTAB1
 70
     6
  9
$SURFTAB2
 70
     6
  9
$SURFTYPE
 70
     6
  9
$SURFU
 70
     6
  9
$SURFV
 70
     6
  9
$UCSBASE
  2

  9
$UCSNAME
  2

  9
$UCSORG
 10
0.0
 20
0.0
 30
0.0
  9
$UCSXDIR
 10
1.0
 20
0.0
 30
0.0
  9
$UCSYDIR
 10
0.0
 20
1.0
 30
0.0
  9
$UCSORTHOREF
  2

  9
$UCSORTHOVIEW
 70
     0
  9
$UCSORGTOP
 10
0.0
 20
0.0
 30
0.0
  9
$UCSORGBOTTOM
 10
0.0
 20
0.0
 30
0.0
  9
$UCSORGLEFT
 10
0.0
 20
0.0
 30
0.0
  9
$UCSORGRIGHT
 10
0.0
 20
0.0
 30
0.0
  9
$UCSORGFRONT
 10
0.0
 20
0.0
 30
0.0
  9
$UCSORGBACK
 10
0.0
 20
0.0
 30
0.0
  9
$PUCSBASE
  2

  9
$PUCSNAME
  2

  9
$PUCSORG
 10
0.0
 20
0.0
 30
0.0
  9
$PUCSXDIR
 10
1.0
 20
0.0
 30
0.0
  9
$PUCSYDIR
 10
0.0
 20
1.0
 30
0.0
  9
$PUCSORTHOREF
  2

  9
$PUCSORTHOVIEW
 70
     0
  9
$PUCSORGTOP
 10
0.0
 20
0.0
 30
0.0
  9
$PUCSORGBOTTOM
 10
0.0
 20
0.0
 30
0.0
  9
$PUCSORGLEFT
 10
0.0
 20
0.0
 30
0.0
  9
$PUCSORGRIGHT
 10
0.0
 20
0.0
 30
0.0
  9
$PUCSORGFRONT
 10
0.0
 20
0.0
 30
0.0
  9
$PUCSORGBACK
 10
0.0
 20
0.0
 30
0.0
  9
$USERI1
 70
     0
  9
$USERI2
 70
     0
  9
$USERI3
 70
     0
  9
$USERI4
 70
     0
  9
$USERI5
 70
     0
  9
$USERR1
 40
0.0
  9
$USERR2
 40
0.0
  9
$USERR3
 40
0.0
  9
$USERR4
 40
0.0
  9
$USERR5
 40
0.0
  9
$WORLDVIEW
 70
     1
  9
$SHADEDGE
 70
     3
  9
$SHADEDIF
 70
    70
  9
$TILEMODE
 70
     1
  9
$MAXACTVP
 70
    16
  9
$PINSBASE
 10
0.0
 20
0.0
 30
0.0
  9
$PLIMCHECK
 70
     0
  9
$PEXTMIN
 10
1.000000E+20
 20
1.000000E+20
 30
1.000000E+20
  9
$PEXTMAX
 10
-1.000000E+20
 20
-1.000000E+20
 30
-1.000000E+20
  9
$PLIMMIN
 10
0.0
 20
0.0
  9
$PLIMMAX
 10
12.0
 20
9.0
  9
$UNITMODE
 70
     0
  9
$VISRETAIN
 70
     0
  9
$PLINEGEN
 70
     1
  9
$PSLTSCALE
 70
     0
  9
$TREEDEPTH
 70
  3020
  9
$CMLSTYLE
  2
Standard
  9
$CMLJUST
 70
     0
  9
$CMLSCALE
 40
1.0
  9
$PROXYGRAPHICS
 70
     0
  9
$MEASUREMENT
 70
     0
  9
$CELWEIGHT
370
     0
  9
$ENDCAPS
280
     0
  9
$JOINSTYLE
280
     0
  9
$LWDISPLAY
290
     0
  9
$INSUNITS
 70
     1
  9
$HYPERLINKBASE
  1

  9
$STYLESHEET
  1

  9
$XEDIT
290
     1
  9
$CEPSNTYPE
380
     0
  9
$PSTYLEMODE
290
     1
  9
$FINGERPRINTGUID
  2

  9
$VERSIONGUID
  2

  9
$EXTNAMES
290
     1
  9
$PSVPSCALE
 40
0.0
  0
ENDSEC
  0
SECTION
  2
CLASSES
  0
CLASS
  1
LWPOLYLINE
  2
AcDbPolyline
  3
AutoCAD 2000
 90
        0
280
     0
281
     1
  0
CLASS
  1
IMAGE
  2
AcDbRasterImage
  3
ISM
 90
      127
280
     0
281
     1
  0
CLASS
  1
OLE2FRAME
  2
AcDbOle2Frame
  3
AutoCAD 2000
 90
        0
280
     0
281
     1
  0
CLASS
  1
HATCH
  2
AcDbHatch
  3
AutoCAD 2000
 90
        0
280
     0
281
     1
  0
CLASS
  1
DICTIONARYVAR
  2
AcDbDictionaryVar
  3
AutoCAD 2000
 90
        0
280
     0
281
     0
  0
CLASS
  1
RASTERVARIABLES
  2
AcDbRasterVariables
  3
ISM
 90
        0
280
     0
281
     0
  0
CLASS
  1
IMAGEDEF
  2
AcDbRasterImageDef
  3
ISM
 90
        0
280
     0
281
     0
  0
CLASS
  1
IMAGEDEF_REACTOR
  2
AcDbRasterImageDefReactor
  3
ISM
 90
        1
280
     0
281
     0
  0
CLASS
  1
IDBUFFER
  2
AcDbIdBuffer
  3
AutoCAD 2000
 90
        0
280
     0
281
     0
  0
CLASS
  1
SPATIAL_FILTER
  2
AcDbSpatialFilter
  3
AutoCAD 2000
 90
        0
280
     0
281
     0
  0
CLASS
  1
XRECORD
  2
AcDbXrecord
  3
AutoCAD 2000
 90
        0
280
     0
281
     0
  0
CLASS
  1
SORTENTSTABLE
  2
AcDbSortentsTable
  3
AutoCAD 2000
 90
        0
280
     0
281
     0
  0
CLASS
  1
LAYER_INDEX
  2
AcDbLayerIndex
  3
AutoCAD 2000
 90
        0
280
     0
281
     0
  0
CLASS
  1
SPATIAL_INDEX
  2
AcDbSpatialIndex
  3
AutoCAD 2000
 90
        0
280
     0
281
     0
  0
CLASS
  1
OBJECT_PTR
  2
CAseDLPNTableRecord
  3
"ASE-LPNTableRecord"
 90
        1
280
     0
281
     0
  0
CLASS
  1
LAYOUT
  2
AcDbLayout
  3
AutoCAD 2000
 90
        0
280
     0
281
     0
  0
CLASS
  1
PLOTSETTINGS
  2
AcDbPlotSettings
  3
AutoCAD 2000
 90
        0
280
     0
281
     0
  0
CLASS
  1
ACDBDICTIONARYWDFLT
  2
AcDbDictionaryWithDefault
  3
AutoCAD 2000
 90
        0
280
     0
281
     0
  0
CLASS
  1
ACDBPLACEHOLDER
  2
AcDbPlaceHolder
  3
AutoCAD 2000
 90
        0
280
     0
281
     0
  0
CLASS
  1
VBA_PROJECT
  2
AcDbVbaProject
  3
acadvba
 90
        0
280
     0
281
     0
  0
CLASS
  1
WIPEOUT
  2
AcDbWipeout
  3
WipeOut|AutoCAD Express Tool|expresstools@autodesk.com
 90
      127
280
     0
281
     1
  0
CLASS
  1
WIPEOUTVARIABLES
  2
AcDbWipeoutVariables
  3
WipeOut|AutoCAD Express Tool|expresstools@autodesk.com
 90
        0
280
     0
281
     0
  0
CLASS
  1
RTEXT
  2
RText
  3
RText|AutoCAD Express Tool|expresstools@autodesk.com
 90
        0
280
     0
281
     1
  0
CLASS
  1
ARCALIGNEDTEXT
  2
AcDbArcAlignedText
  3
ATEXT|AutoCAD Express Tool|expresstools@autodesk.com
 90
        0
280
     0
281
     1
  0
ENDSEC
  0
SECTION
  2
TABLES
  0
TABLE
  2
VPORT
  5
7
100
AcDbSymbolTable
 70
     1
  0
VPORT
  5
15
100
AcDbSymbolTableRecord
100
AcDbViewportTableRecord
  2
*ACTIVE
 70
     0
 10
0.0
 20
0.0
 11
1.0
 21
1.0
 12
6.591288
 22
4.579184
 13
0.0
 23
0.0
 14
1.0
 24
1.0
 15
0.0
 25
0.0
 16
0.0
 26
0.0
 36
1.0
 17
0.0
 27
0.0
 37
0.0
 40
9.158369
 41
0.688564
 42
50.0
 43
0.0
 44
0.0
 50
0.0
 51
0.0
 71
     0
 72
   100
 73
     1
 74
     1
 75
     0
 76
     0
 77
     0
 78
     0
281
     0
 65
     0
110
0.0
120
0.0
130
0.0
111
1.0
121
0.0
131
0.0
112
0.0
122
1.0
132
0.0
345
0
346
0
 79
     0
146
0.0
  0
ENDTAB
  0
TABLE
  2
LTYPE
  5
4
100
AcDbSymbolTable
 70
     7
  0
LTYPE
  5
11
100
AcDbSymbolTableRecord
100
AcDbLinetypeTableRecord
  2
ByBlock
 70
    64
  3

 72
    65
 73
     0
 40
0.0
  0
LTYPE
  5
12
100
AcDbSymbolTableRecord
100
AcDbLinetypeTableRecord
  2
ByLayer
 70
    64
  3

 72
    65
 73
     0
 40
0.0
  0
LTYPE
  5
13
100
AcDbSymbolTableRecord
100
AcDbLinetypeTableRecord
  2
Continuous
 70
    64
  3
Solid line
 72
    65
 73
     0
 40
0.0
  0
LTYPE
  5
24
100
AcDbSymbolTableRecord
100
AcDbLinetypeTableRecord
  2
CONTINUOUS2
 70
     0
  3
Solid line
 72
    65
 73
     0
 40
0.0
  0
LTYPE
  5
25
100
AcDbSymbolTableRecord
100
AcDbLinetypeTableRecord
  2
DASHED
 70
    64
  3
__ __ __ __ __ __ __ __ __ __ __ __ __ __ __ __
 72
    65
 73
     2
 40
0.5
 49
0.375
 74
     0
 49
-0.125
 74
     0
  0
LTYPE
  5
26
100
AcDbSymbolTableRecord
100
AcDbLinetypeTableRecord
  2
CENTER
 70
    64
  3
____ _ ____ _ ____ _ ____ _ ____ _ ____ _ ____ _
 72
    65
 73
     4
 40
1.0
 49
0.625
 74
     0
 49
-0.125
 74
     0
 49
0.125
 74
     0
 49
-0.125
 74
     0
  0
LTYPE
  5
27
100
AcDbSymbolTableRecord
100
AcDbLinetypeTableRecord
  2
PHANTOM
 70
    64
  3
___ _ _ ___ _ _ ___ _ _ ___ _ _ ___ _ _ ___ _ _ 
 72
    65
 73
     6
 40
1.0
 49
0.5
 74
     0
 49
-0.1
 74
     0
 49
0.1
 74
     0
 49
-0.1
 74
     0
 49
0.1
 74
     0
 49
-0.1
 74
     0
  0
ENDTAB
  0
TABLE
  2
LAYER
  5
2
100
AcDbSymbolTable
 70
     3
  0
LAYER
  5
14
100
AcDbSymbolTableRecord
100
AcDbLayerTableRecord
  2
0
 70
     0
 62
     7
  6
Continuous
290
     1
370
    -3
390
1D
  0
LAYER
  5
28
100
AcDbSymbolTableRecord
100
AcDbLayerTableRecord
  2
PROFILE
 70
     0
 62
     1
  6
Continuous
290
     1
370
    -3
390
1D
  0
LAYER
  5
40
100
AcDbSymbolTableRecord
100
AcDbLayerTableRecord
  2
Dimension 
 70
     0
 62
     1
  6
Continuous
290
     1
370
    -3
390
1D
  0
ENDTAB
  0
TABLE
  2
STYLE
  5
3
100
AcDbSymbolTable
 70
     1
  0
STYLE
  5
17
100
AcDbSymbolTableRecord
100
AcDbTextStyleTableRecord
  2
Standard
 70
     0
 40
0.0
 41
1.0
 50
0.0
 71
     0
 42
0.0
  3
txt
  4

  0
ENDTAB
  0
TABLE
  2
VIEW
  5
5
100
AcDbSymbolTable
 70
     0
  0
ENDTAB
  0
TABLE
  2
UCS
  5
6
100
AcDbSymbolTable
 70
     0
  0
ENDTAB
  0
TABLE
  2
APPID
  5
8
100
AcDbSymbolTable
 70
     1
  0
APPID
  5
16
100
AcDbSymbolTableRecord
100
AcDbRegAppTableRecord
  2
ACAD
 70
     0
  0
ENDTAB
  0
TABLE
  2
DIMSTYLE
  5
9
100
AcDbSymbolTable
 70
     1
100
AcDbDimStyleTable
 71
     0
  0
DIMSTYLE
105
18
100
AcDbSymbolTableRecord
100
AcDbDimStyleTableRecord
  2
Standard
 70
     0
  3

  4

 40
1.0
 41
0.18
 42
0.0625
 43
0.38
 44
0.18
 45
0.0
 46
0.0
 47
0.0
 48
0.0
 71
     0
 72
     0
 73
     1
 74
     1
 75
     0
 76
     0
 77
     0
 78
     0
 79
     0
140
0.18
141
0.09
142
0.0
143
25.4
144
1.0
145
0.0
146
1.0
147
0.09
148
0.0
170
     0
171
     2
172
     0
173
     0
174
     0
175
     0
176
     0
177
     0
178
     0
179
     0
271
     4
272
     4
273
     2
274
     2
275
     0
276
     0
277
     2
278
    46
279
     0
280
     0
281
     0
282
     0
283
     1
284
     0
285
     0
286
     0
288
     0
289
     3
340
17
341
0
342
0
343
0
344
0
371
    -2
372
    -2
  0
ENDTAB
  0
TABLE
  2
BLOCK_RECORD
  5
1
100
AcDbSymbolTable
 70
     3
  0
BLOCK_RECORD
  5
A
100
AcDbSymbolTableRecord
100
AcDbBlockTableRecord
  2
*MODEL_SPACE
340
20
  0
BLOCK_RECORD
  5
B
100
AcDbSymbolTableRecord
100
AcDbBlockTableRecord
  2
*PAPER_SPACE
340
21
  0
BLOCK_RECORD
  5
29
100
AcDbSymbolTableRecord
100
AcDbBlockTableRecord
  2
*D0
340
0
  0
BLOCK_RECORD
  5
41
100
AcDbSymbolTableRecord
100
AcDbBlockTableRecord
  2
*D1
340
0
  0
BLOCK_RECORD
  5
4C
100
AcDbSymbolTableRecord
100
AcDbBlockTableRecord
  2
*D2
340
0
  0
ENDTAB
  0
ENDSEC
  0
SECTION
  2
BLOCKS
  0
BLOCK
  5
D
100
AcDbEntity
  8
0
390
0
100
AcDbBlockBegin
  2
*MODEL_SPACE
 70
     0
 10
0.0
 20
0.0
 30
0.0
  3
*MODEL_SPACE
  1

  0
ENDBLK
  5
E
100
AcDbEntity
  8
0
390
0
100
AcDbBlockEnd
  0
BLOCK
  5
F
100
AcDbEntity
 67
     1
  8
0
390
0
100
AcDbBlockBegin
  2
*PAPER_SPACE
 70
     0
 10
0.0
 20
0.0
 30
0.0
  3
*PAPER_SPACE
  1

  0
ENDBLK
  5
10
100
AcDbEntity
 67
     1
  8
0
390
0
100
AcDbBlockEnd
  0
BLOCK
  5
2A
100
AcDbEntity
  8
PROFILE
390
0
  6
CONTINUOUS2
 62
     5
100
AcDbBlockBegin
  2
*D0
 70
     0
 10
0.0
 20
0.0
 30
0.0
  3
*D0
  1

  0
LINE
  5
2B
100
AcDbEntity
  8
PROFILE
390
0
  6
CONTINUOUS2
 62
     5
100
AcDbLine
 10
-38.5625
 20
-116.249992
 30
0.0
 11
-39.176002
 21
-116.249992
 31
0.0
210
0.0
220
-0.0
230
1.0
  0
LINE
  5
2C
100
AcDbEntity
  8
PROFILE
390
0
  6
CONTINUOUS2
 62
     5
100
AcDbLine
 10
-38.5625
 20
-111.257952
 30
0.0
 11
-39.176002
 21
-111.257952
 31
0.0
210
0.0
220
-0.0
230
1.0
  0
LINE
  5
2D
100
AcDbEntity
  8
PROFILE
390
0
  6
CONTINUOUS2
 62
     5
100
AcDbLine
 10
-39.113502
 20
-116.249992
 30
0.0
 11
-39.113502
 21
-114.018095
 31
0.0
210
0.0
220
-0.0
230
1.0
  0
LINE
  5
2E
100
AcDbEntity
  8
PROFILE
390
0
  6
CONTINUOUS2
 62
     5
100
AcDbLine
 10
-39.113502
 20
-111.257952
 30
0.0
 11
-39.113502
 21
-113.48985
 31
0.0
210
0.0
220
-0.0
230
1.0
  0
MTEXT
  5
2F
100
AcDbEntity
  8
PROFILE
390
0
  6
CONTINUOUS2
 62
     5
100
AcDbMText
 10
-39.113502
 20
-113.753972
 30
0.0
 40
0.125
 41
0.0
 71
     5
 72
     1
  1
{\H0.125000;Varies}
210
0.0
220
-0.0
230
1.0
 73
     1
 44
1.0
  0
SOLID
  5
30
100
AcDbEntity
  8
PROFILE
390
0
  6
CONTINUOUS2
 62
     5
100
AcDbTrace
 10
-39.134314
 20
-116.218742
 30
0.0
 11
-39.092689
 21
-116.218742
 31
0.0
 12
-39.113502
 22
-116.249992
 32
0.0
 13
-39.113502
 23
-116.249992
 33
0.0
210
0.0
220
-0.0
230
1.0
  0
SOLID
  5
31
100
AcDbEntity
  8
PROFILE
390
0
  6
CONTINUOUS2
 62
     5
100
AcDbTrace
 10
-39.092689
 20
-111.289202
 30
0.0
 11
-39.134314
 21
-111.289202
 31
0.0
 12
-39.113502
 22
-111.257952
 32
0.0
 13
-39.113502
 23
-111.257952
 33
0.0
210
0.0
220
-0.0
230
1.0
  0
ENDBLK
  5
32
100
AcDbEntity
  8
PROFILE
390
0
  6
CONTINUOUS2
 62
     5
100
AcDbBlockEnd
  0
BLOCK
  5
42
100
AcDbEntity
  8
Dimension 
390
0
  6
CONTINUOUS2
 62
     5
100
AcDbBlockBegin
  2
*D1
 70
     0
 10
0.0
 20
0.0
 30
0.0
  3
*D1
  1

  0
LINE
  5
43
100
AcDbEntity
  8
Dimension 
390
0
  6
CONTINUOUS2
 62
     5
100
AcDbLine
 10
-38.375
 20
-116.374992
 30
0.0
 11
-38.375
 21
-116.61652
 31
0.0
210
0.0
220
-0.0
230
1.0
  0
LINE
  5
44
100
AcDbEntity
  8
Dimension 
390
0
  6
CONTINUOUS2
 62
     5
100
AcDbLine
 10
-37.75
 20
-116.374992
 30
0.0
 11
-37.75
 21
-116.61652
 31
0.0
210
0.0
220
-0.0
230
1.0
  0
LINE
  5
45
100
AcDbEntity
  8
Dimension 
390
0
  6
CONTINUOUS2
 62
     5
100
AcDbLine
 10
-38.375
 20
-116.55402
 30
0.0
 11
-38.37475
 21
-116.55402
 31
0.0
210
0.0
220
-0.0
230
1.0
  0
LINE
  5
46
100
AcDbEntity
  8
Dimension 
390
0
  6
CONTINUOUS2
 62
     5
100
AcDbLine
 10
-37.75
 20
-116.55402
 30
0.0
 11
-37.75025
 21
-116.55402
 31
0.0
210
0.0
220
-0.0
230
1.0
  0
MTEXT
  5
47
100
AcDbEntity
  8
Dimension 
390
0
  6
CONTINUOUS2
 62
     5
100
AcDbMText
 10
-38.0625
 20
-116.55402
 30
0.0
 40
0.125
 41
0.0
 71
     5
 72
     1
  1
{\H0.125000;5/8"}
210
0.0
220
-0.0
230
1.0
 73
     1
 44
1.0
  0
SOLID
  5
48
100
AcDbEntity
  8
Dimension 
390
0
  6
CONTINUOUS2
 62
     5
100
AcDbTrace
 10
-38.34375
 20
-116.533207
 30
0.0
 11
-38.34375
 21
-116.574832
 31
0.0
 12
-38.375
 22
-116.55402
 32
0.0
 13
-38.375
 23
-116.55402
 33
0.0
210
0.0
220
-0.0
230
1.0
  0
SOLID
  5
49
100
AcDbEntity
  8
Dimension 
390
0
  6
CONTINUOUS2
 62
     5
100
AcDbTrace
 10
-37.78125
 20
-116.574832
 30
0.0
 11
-37.78125
 21
-116.533207
 31
0.0
 12
-37.75
 22
-116.55402
 32
0.0
 13
-37.75
 23
-116.55402
 33
0.0
210
0.0
220
-0.0
230
1.0
  0
ENDBLK
  5
4A
100
AcDbEntity
  8
Dimension 
390
0
  6
CONTINUOUS2
 62
     5
100
AcDbBlockEnd
  0
BLOCK
  5
4D
100
AcDbEntity
  8
Dimension 
390
0
  6
CONTINUOUS2
 62
     5
100
AcDbBlockBegin
  2
*D2
 70
     0
 10
0.0
 20
0.0
 30
0.0
  3
*D2
  1

  0
LINE
  5
4E
100
AcDbEntity
  8
Dimension 
390
0
  6
CONTINUOUS2
 62
     5
100
AcDbLine
 10
-37.625
 20
-112.023582
 30
0.0
 11
-37.185289
 21
-112.023582
 31
0.0
210
0.0
220
-0.0
230
1.0
  0
LINE
  5
4F
100
AcDbEntity
  8
Dimension 
390
0
  6
CONTINUOUS2
 62
     5
100
AcDbLine
 10
-38.250004
 20
-111.249985
 30
0.0
 11
-37.185289
 21
-111.249985
 31
0.0
210
0.0
220
-0.0
230
1.0
  0
LINE
  5
50
100
AcDbEntity
  8
Dimension 
390
0
  6
CONTINUOUS2
 62
     5
100
AcDbLine
 10
-37.247789
 20
-112.023582
 30
0.0
 11
-37.247789
 21
-111.900906
 31
0.0
210
0.0
220
-0.0
230
1.0
  0
LINE
  5
51
100
AcDbEntity
  8
Dimension 
390
0
  6
CONTINUOUS2
 62
     5
100
AcDbLine
 10
-37.247789
 20
-111.249985
 30
0.0
 11
-37.247789
 21
-111.372661
 31
0.0
210
0.0
220
-0.0
230
1.0
  0
MTEXT
  5
52
100
AcDbEntity
  8
Dimension 
390
0
  6
CONTINUOUS2
 62
     5
100
AcDbMText
 10
-37.247789
 20
-111.636784
 30
0.0
 40
0.125
 41
0.0
 71
     5
 72
     1
  1
{\H0.125000;25/32"}
210
0.0
220
-0.0
230
1.0
 73
     1
 44
1.0
  0
SOLID
  5
53
100
AcDbEntity
  8
Dimension 
390
0
  6
CONTINUOUS2
 62
     5
100
AcDbTrace
 10
-37.268601
 20
-111.992332
 30
0.0
 11
-37.226976
 21
-111.992332
 31
0.0
 12
-37.247789
 22
-112.023582
 32
0.0
 13
-37.247789
 23
-112.023582
 33
0.0
210
0.0
220
-0.0
230
1.0
  0
SOLID
  5
54
100
AcDbEntity
  8
Dimension 
390
0
  6
CONTINUOUS2
 62
     5
100
AcDbTrace
 10
-37.226976
 20
-111.281235
 30
0.0
 11
-37.268601
 21
-111.281235
 31
0.0
 12
-37.247789
 22
-111.249985
 32
0.0
 13
-37.247789
 23
-111.249985
 33
0.0
210
0.0
220
-0.0
230
1.0
  0
ENDBLK
  5
55
100
AcDbEntity
  8
Dimension 
390
0
  6
CONTINUOUS2
 62
     5
100
AcDbBlockEnd
  0
ENDSEC
  0
SECTION
  2
ENTITIES
  0
DIMENSION
  5
33
100
AcDbEntity
  8
PROFILE
390
0
  6
CONTINUOUS2
 62
     5
100
AcDbDimension
  2
*D0
 10
-39.113502
 20
-113.753972
 30
0.0
 11
-39.113502
 21
-113.753972
 31
0.0
 71
     5
 72
     1
 41
1.0
 42
4.99204
210
0.0
220
-0.0
230
1.0
  3
Standard
100
AcDbAlignedDimension
 13
-38.4375
 23
-111.257952
 33
0.0
 14
-38.4375
 24
-116.249992
 34
0.0
 50
90.0
100
AcDbRotatedDimension
1001
ACAD
1000
DSTYLE
1002
{
1070
    41
1040
0.03125
1070
    42
1040
0.125
1070
    44
1040
0.0625
1070
    47
1040
0.0005
1070
    48
1040
0.0005
1070
   140
1040
0.125
1070
   146
1040
0.5
1070
   174
1070
     1
1070
   271
1070
     3
1070
   272
1070
     3
1002
}
  0
LINE
  5
34
100
AcDbEntity
  8
PROFILE
390
0
  6
CONTINUOUS2
 62
     7
100
AcDbLine
 10
-38.375
 20
-116.249992
 30
0.0
 11
-38.375
 21
-114.874993
 31
0.0
  0
LINE
  5
35
100
AcDbEntity
  8
PROFILE
390
0
  6
CONTINUOUS2
 62
     7
100
AcDbLine
 10
-38.375
 20
-111.249992
 30
0.0
 11
-38.375
 21
-112.624992
 31
0.0
  0
LINE
  5
36
100
AcDbEntity
  8
PROFILE
390
0
  6
CONTINUOUS2
 62
     7
100
AcDbLine
 10
-38.34375
 20
-114.843742
 30
0.0
 11
-38.34375
 21
-112.656242
 31
0.0
  0
LINE
  5
37
100
AcDbEntity
  8
PROFILE
390
0
  6
CONTINUOUS2
 62
     7
100
AcDbLine
 10
-38.375
 20
-114.874992
 30
0.0
 11
-38.34375
 21
-114.843742
 31
0.0
  0
LINE
  5
38
100
AcDbEntity
  8
PROFILE
390
0
  6
CONTINUOUS2
 62
     7
100
AcDbLine
 10
-38.375
 20
-112.624992
 30
0.0
 11
-38.34375
 21
-112.656242
 31
0.0
  0
LINE
  5
39
100
AcDbEntity
  8
PROFILE
390
0
  6
CONTINUOUS2
 62
     7
100
AcDbLine
 10
-38.375
 20
-116.249992
 30
0.0
 11
-37.75
 21
-116.249992
 31
0.0
  0
LINE
  5
3A
100
AcDbEntity
  8
PROFILE
390
0
  6
CONTINUOUS2
 62
     7
100
AcDbLine
 10
-37.75
 20
-116.249992
 30
0.0
 11
-37.75
 21
-112.023586
 31
0.0
  0
ARC
  5
3B
100
AcDbEntity
  8
PROFILE
390
0
  6
CONTINUOUS2
 62
     7
100
AcDbCircle
 10
-37.643614
 20
-111.711368
 30
0.0
 40
0.329845
210
0.0
220
-0.0
230
1.0
100
AcDbArc
 50
200.375113
 51
251.183723
  0
ARC
  5
3C
100
AcDbEntity
  8
PROFILE
390
0
  6
CONTINUOUS2
 62
     7
100
AcDbCircle
 10
-38.35707
 20
-111.570723
 30
0.0
 40
0.315201
210
0.0
220
-0.0
230
1.0
100
AcDbArc
 50
35.469022
 51
70.907468
  0
ARC
  5
3D
100
AcDbEntity
  8
PROFILE
390
0
  6
CONTINUOUS2
 62
     7
100
AcDbCircle
 10
-38.392014
 20
-111.671679
 30
0.0
 40
0.422034
210
0.0
220
-0.0
230
1.0
100
AcDbArc
 50
70.907472
 51
87.690222
  0
ARC
  5
3E
100
AcDbEntity
  8
PROFILE
390
0
  6
CONTINUOUS2
 62
     7
100
AcDbCircle
 10
-38.414278
 20
-111.611482
 30
0.0
 40
0.385444
210
0.0
220
-0.0
230
1.0
100
AcDbArc
 50
11.64764
 51
35.469024
  0
ARC
  5
3F
100
AcDbEntity
  8
PROFILE
390
0
  6
CONTINUOUS2
 62
     7
100
AcDbCircle
 10
-36.077955
 20
-111.129879
 30
0.0
 40
2.0
210
0.0
220
-0.0
230
1.0
100
AcDbArc
 50
191.647647
 51
200.375113
  0
DIMENSION
  5
4B
100
AcDbEntity
  8
Dimension 
390
0
  6
CONTINUOUS2
 62
     5
100
AcDbDimension
  2
*D1
 10
-38.0625
 20
-116.55402
 30
0.0
 11
-38.0625
 21
-116.55402
 31
0.0
 70
     1
 71
     5
 72
     1
 41
1.0
 42
0.625
210
0.0
220
-0.0
230
1.0
  3
Standard
100
AcDbAlignedDimension
 13
-38.375
 23
-116.249992
 33
0.0
 14
-37.75
 24
-116.249992
 34
0.0
1001
ACAD
1000
DSTYLE
1002
{
1070
    41
1040
0.03125
1070
    42
1040
0.125
1070
    44
1040
0.0625
1070
    47
1040
0.0005
1070
    48
1040
0.0005
1070
   140
1040
0.125
1070
   146
1040
0.5
1070
   174
1070
     1
1070
   270
1070
     5
1070
   271
1070
     3
1070
   272
1070
     3
1070
   277
1070
     5
1002
}
  0
DIMENSION
  5
56
100
AcDbEntity
  8
Dimension 
390
0
  6
CONTINUOUS2
 62
     5
100
AcDbDimension
  2
*D2
 10
-37.247789
 20
-111.636784
 30
0.0
 11
-37.247789
 21
-111.636784
 31
0.0
 71
     5
 72
     1
 41
1.0
 42
0.773598
210
0.0
220
-0.0
230
1.0
  3
Standard
100
AcDbAlignedDimension
 13
-38.375004
 23
-111.249985
 33
0.0
 14
-37.75
 24
-112.023582
 34
0.0
 50
90.0
100
AcDbRotatedDimension
1001
ACAD
1000
DSTYLE
1002
{
1070
    41
1040
0.03125
1070
    42
1040
0.125
1070
    44
1040
0.0625
1070
    47
1040
0.0005
1070
    48
1040
0.0005
1070
   140
1040
0.125
1070
   146
1040
0.5
1070
   174
1070
     1
1070
   270
1070
     5
1070
   271
1070
     3
1070
   272
1070
     3
1070
   277
1070
     5
1002
}
  0
TEXT
  5
57
100
AcDbEntity
  8
PROFILE
390
0
  6
CONTINUOUS2
 62
   174
100
AcDbText
 10
-38.355622
 20
-117.278245
 30
0.0
 40
0.125
  1
BS1001
 41
0.892857
100
AcDbText
  0
ENDSEC
  0
SECTION
  2
OBJECTS
  0
DICTIONARY
  5
19
100
AcDbDictionary
280
     0
281
     1
  3
ACAD_GROUP
350
1A
  3
ACAD_MLINESTYLE
350
1B
  3
ACAD_LAYOUT
350
1E
  3
ACAD_PLOTSETTINGS
350
22
  3
ACAD_PLOTSTYLENAME
350
1F
  3
ACAD_WIPEOUT_VARS
350
23
  0
DICTIONARY
  5
1A
102
{ACAD_REACTORS
330
19
102
}
100
AcDbDictionary
280
     0
281
     1
  0
DICTIONARY
  5
1B
102
{ACAD_REACTORS
330
19
102
}
100
AcDbDictionary
280
     0
281
     1
  3
Standard
350
1C
  0
MLINESTYLE
  5
1C
102
{ACAD_REACTORS
330
1B
102
}
100
AcDbMlineStyle
  2
Standard
 70
     0
  3

 62
     0
 51
90.0
 52
90.0
 71
     2
 49
0.5
 62
   256
  6
ByLayer
 49
-0.5
 62
   256
  6
ByLayer
  0
ACDBDICTIONARYWDFLT
  5
1F
102
{ACAD_REACTORS
330
19
102
}
100
AcDbDictionary
281
     1
  3
Normal
350
1D
100
AcDbDictionaryWithDefault
340
1D
  0
ACDBPLACEHOLDER
  5
1D
102
{ACAD_REACTORS
330
1F
102
}
  0
LAYOUT
  5
20
102
{ACAD_REACTORS
330
1E
102
}
100
AcDbPlotSettings
  1

  2

  4

  6

 40
0.0
 41
0.0
 42
0.0
 43
0.0
 44
0.0
 45
0.0
 46
0.0
 47
0.0
 48
0.0
 49
0.0
140
0.0
141
0.0
142
1.0
143
1.0
 70
  1024
 72
     0
 73
     0
 74
     0
  7

 75
     0
147
1.0
148
0.0
149
0.0
100
AcDbLayout
  1
Model
 70
     0
 71
     1
 10
0.0
 20
0.0
 11
0.0
 21
0.0
 12
0.0
 22
0.0
 32
0.0
 14
0.0
 24
0.0
 34
0.0
 15
0.0
 25
0.0
 35
0.0
146
0.0
 13
0.0
 23
0.0
 33
0.0
 16
0.0
 26
0.0
 36
0.0
 17
0.0
 27
0.0
 37
0.0
 76
     0
330
A
331
0
345
0
346
0
  0
LAYOUT
  5
21
102
{ACAD_REACTORS
330
1E
102
}
100
AcDbPlotSettings
  1

  2

  4

  6

 40
0.0
 41
0.0
 42
0.0
 43
0.0
 44
0.0
 45
0.0
 46
0.0
 47
0.0
 48
0.0
 49
0.0
140
0.0
141
0.0
142
1.0
143
1.0
 70
     0
 72
     0
 73
     0
 74
     0
  7

 75
     0
147
1.0
148
0.0
149
0.0
100
AcDbLayout
  1
Layout1
 70
     0
 71
     2
 10
0.0
 20
0.0
 11
0.0
 21
0.0
 12
0.0
 22
0.0
 32
0.0
 14
0.0
 24
0.0
 34
0.0
 15
0.0
 25
0.0
 35
0.0
146
0.0
 13
0.0
 23
0.0
 33
0.0
 16
0.0
 26
0.0
 36
0.0
 17
0.0
 27
0.0
 37
0.0
 76
     0
330
B
331
0
345
0
346
0
  0
DICTIONARY
  5
1E
102
{ACAD_REACTORS
330
19
102
}
100
AcDbDictionary
280
     0
281
     1
  3
Layout1
350
21
  3
Model
350
20
  0
DICTIONARY
  5
22
102
{ACAD_REACTORS
330
19
102
}
100
AcDbDictionary
280
     0
281
     1
  0
WIPEOUTVARIABLES
  5
23
100
AcDbWipeoutVariables
 70
     1
  0
ENDSEC
  0
EOF
